[喘息 Breathe 第一季][全08集打包][印语中字][MKV][1080P]

1v影视资讯 0 条评论 2020-08-15 19:19

内含官方中字 更多字幕详见下面参数列表

◎译  名 喘息

◎片  名 breathe

◎年  代 2018

◎产  地 印度

◎类  别 剧情/悬疑/惊悚

◎上映日期 2018-01-26(印度)

◎IMDb评分 8.7/10 from 5,608 users

◎IMDb链接 http://www.imdb.com/title/tt6466208/

http://www..us/

◎集  数 8

◎片  长 45

◎导  演 Mayank Sharma

◎主  演 马达范 R. Madhavan

      阿米特·萨特 Amit Sadh

      Sapna Pabbi

      Shriswara

      Atharva Vishwakarma

      Hrishikesh Joshi

      Nina Kulkarni


◎简  介


  《呼吸》是一部讲述普通人生活的印度戏剧。卡比尔(Sadh),一个聪明但不寻常的犯罪部门官员,把看似无关的死亡拼凑在一起,导致了一个不太可能的嫌疑人——友善的丹尼(R.Madhavan)。卡比尔将不会停止,直到他破案并交付正义。


Video
ID : 1
Format : AVC
Format/Info : Advanced Video Codec
Format profile : [email protected]
Format settings : CABAC / 4 Ref Frames
Format settings, CABAC : Yes
Format settings, ReFrames : 4 frames
Codec ID : V_MPEG4/ISO/AVC
Duration : 37 min 5 s
Bit rate mode : Variable
Bit rate : 8 272 kb/s
Maximum bit rate : 15.0 Mb/s
Width : 1 920 pixels
Height : 1 080 pixels
Display aspect ratio : 16:9
Frame rate mode : Constant
Frame rate : 25.000 FPS
Color space : YUV
Chroma subsampling : 4:2:0
Bit depth : 8 bits
Scan type : Progressive
Bits/(Pixel*Frame) : 0.160
Stream size : 2.14 GiB (93%)
Default : Yes
Forced : No
Color range : Limited
Color primaries : BT.709
Transfer characteristics : BT.709
Matrix coefficients : BT.709

Audio
ID : 2
Format : E-AC-3
Format/Info : Enhanced AC-3
Commercial name : Dolby Digital Plus
Codec ID : A_EAC3
Duration : 37 min 5 s
Bit rate mode : Constant
Bit rate : 640 kb/s
Channel(s) : 6 channels
Channel layout : L R C LFE Ls Rs
Sampling rate : 48.0 kHz
Frame rate : 31.250 FPS (1536 SPF)
Compression mode : Lossy
Stream size : 170 MiB (7%)
Title : Hindi
Language : Hindi
Service kind : Complete Main
Default : No
Forced : No

Text #1
ID : 3
Format : F-8
Codec ID : S_TEXT/F8
Codec ID/Info : F-8 Plain Text
Duration : 34 min 30 s
Bit rate : 44 b/s
Count of elements : 344
Stream size : 11.3 KiB (0%)
Title : English [Full]
Language : English
Default : No
Forced : No

Text #2
ID : 4
Format : F-8
Codec ID : S_TEXT/F8
Codec ID/Info : F-8 Plain Text
Duration : 34 min 8 s
Bit rate : 30 b/s
Count of elements : 116
Stream size : 7.70 KiB (0%)
Title : Tamil [Forced]
Language : Tamil
Default : No
Forced : Yes

Text #3
ID : 5
Format : F-8
Codec ID : S_TEXT/F8
Codec ID/Info : F-8 Plain Text
Duration : 34 min 30 s
Bit rate : 130 b/s
Count of elements : 354
Stream size : 33.0 KiB (0%)
Title : Tamil [Full]
Language : Tamil
Default : No
Forced : No

Text #4
ID : 6
Format : F-8
Codec ID : S_TEXT/F8
Codec ID/Info : F-8 Plain Text
Duration : 34 min 7 s
Bit rate : 20 b/s
Count of elements : 90
Stream size : 5.25 KiB (0%)
Title : Telugu [Forced]
Language : Telugu
Default : No
Forced : Yes

Text #5
ID : 7
Format : F-8
Codec ID : S_TEXT/F8
Codec ID/Info : F-8 Plain Text
Duration : 34 min 30 s
Bit rate : 112 b/s
Count of elements : 355
Stream size : 28.5 KiB (0%)
Title : Telugu [Full]
Language : Telugu
Default : No
Forced : No

Text #6
ID : 8
Format : F-8
Codec ID : S_TEXT/F8
Codec ID/Info : F-8 Plain Text
Duration : 34 min 30 s
Bit rate : 39 b/s
Count of elements : 350
Stream size : 9.95 KiB (0%)
Title : Chinese (Traditional) [Full]
Language : Chinese
Default : No
Forced : No

Menu
00:00:00.000 : en:Amazon Original
00:00:05.000 : en:Nightmares and sweet dreams
00:02:41.000 : en:Opening Credits
00:03:35.000 : en:Danny starts taking notes
00:05:27.000 : en:Danny tells Josh\'s future
00:07:25.000 : en:Few artist, history and new meetings
00:10:15.000 : en:Juliet\'s prayers and a truth
00:12:48.000 : en:Where no one can find the trail
00:15:25.000 : en:A phone call, and prayers for a miracle
00:19:26.000 : en:Creating the miracle he badly needs
00:20:51.000 : en:A the whole incident took a different approach
00:26:09.000 : en:When finally opened up about his truth
00:28:43.000 : en:When a father faces another father
00:29:37.000 : en:When someone knows what can redeem you
00:31:30.000 : en:Truth, lies and life
00:35:56.000 : en:End Credits


[喘息 Breathe 第一季][全08集打包][印语中字][MKV][1080P][喘息 Breathe 第一季][全08集打包][印语中字][MKV][1080P]

下一篇:[美国恐怖故事/美国怪谈/American Horror Story ][全8季打包][MKV/MP4/49.63G][
上一篇:[相对无言/The A Word 第三季][英语中字][MP4/MKV][720P][多版]
相关文章
评论
返回顶部小火箭